Program Closes at End of timeline

musicvid

New member
If I click "End" or let the cursor run out, the program closes and I lose all my edits. Sometimes there's an autosave but ??
 

Danr

Administrator
Staff member
Is this consistent with all files, or just some? Try the 801 beta and if you're still seeing it, post the Tools>Show Program Info and we will see if we can duplicate here with our test files.
 

musicvid

New member
I says 800 downloaded today, also previous beta same behavior
.
General
ID : 445 (0x1BD)
Complete name : C:\Users\Mark\Desktop\KBDI-DT-08292019-0830PM.mts
Format : BDAV
Format/Info : Blu-ray Video
File size : 12.8 GiB
Duration : 2 h 30 min
Overall bit rate mode : Variable
Overall bit rate : 12.2 Mb/s

Video
ID : 49 (0x31)
Menu ID : 3 (0x3)
Format : MPEG Video
Format version : Version 2
Format profile : Main@High
Format settings : BVOP
Format settings, BVOP : Yes
Format settings, Matrix : Default
Format settings, GOP : Variable
Format settings, picture structure : Frame
Codec ID : 2
Duration : 2 h 29 min
Bit rate mode : Variable
Bit rate : 11.5 Mb/s
Maximum bit rate : 80.0 Mb/s
Width : 1 920 pixels
Height : 1 080 pixels
Display aspect ratio : 16:9
Frame rate : 29.970 (30000/1001) FPS
Color space : YUV
Chroma subsampling : 4:2:0
Bit depth : 8 bits
Scan type : Interlaced
Scan order : Top Field First
Compression mode : Lossy
Bits/(Pixel*Frame) : 0.185
Stream size : 12.1 GiB (94%)
Color primaries : BT.709
Transfer characteristics : BT.709
Matrix coefficients : BT.709

Audio
ID : 52 (0x34)
Menu ID : 3 (0x3)
Format : AC-3
Format/Info : Audio Coding 3
Commercial name : Dolby Digital
Codec ID : 129
Duration : 2 h 30 min
Bit rate mode : Constant
Bit rate : 192 kb/s
Channel(s) : 2 channels
Channel layout : L R
Sampling rate : 48.0 kHz
Frame rate : 31.250 FPS (1536 SPF)
Bit depth : 16 bits
Compression mode : Lossy
Delay relative to video : -804 ms
Stream size : 206 MiB (2%)
Language : English
Service kind : Complete Main

Text #1
ID : 49 (0x31)-CC1
Menu ID : 3 (0x3)
Format : EIA-608
Muxing mode : A/53 / DTVCC Transport
Muxing mode, more info : Muxed in Video #1
Duration : 2 h 29 min
Bit rate mode : Constant
Stream size : 0.00 Byte (0%)
CaptionServiceName : CC1

Text #2
ID : 49 (0x31)-1
Menu ID : 3 (0x3)
Format : EIA-708
Muxing mode : A/53 / DTVCC Transport
Muxing mode, more info : Muxed in Video #1
Duration : 2 h 29 min
Bit rate mode : Constant
Stream size : 0.00 Byte (0%)
Language : English

Menu
ID : 48 (0x30)
Menu ID : 3 (0x3)
Duration : 2 h 30 min
List : 49 (0x31) (MPEG Video) / 52 (0x34) (AC-3, English)
Language : / English
 
Last edited:

Danr

Administrator
Staff member
Does it only happen when you're in zoom mode?

Does it happen on smaller files?
 
Top Bottom