Issues, problems, troubles, bugs - rubbish.

Kowa1

New member
Videoredo TVsuite 5 all versions.
Only the basic settings skipping "advanced options" - even worse.

Pict01.jpg
Pict01.jpg

The image size entered was 800x450 (800/450 = 1.77777 (7) exactly aspect ratio 16/9 => 16/9 = 1.77777 (7)), but unfortunately, it still modifies it to 800x452 - let it be.

Unfortunately, the conversion gave a surprise result - as one "Mediainfo" version shows

General
Complete name : C:\___A\Redo\000 (02).mp4
Format : MPEG-4
Format profile : Base Media
Codec ID : isom
File size : 5.78 MiB
Duration : 1mn 30s
Overall bit rate : 539 Kbps
Writing application : VideoReDo (Lavf56.25.101)

Video
ID : 1
Format : AVC
Format/Info : Advanced Video Codec
Format profile : High@L2.1
Format settings, CABAC : Yes
Format settings, ReFrames : 4 frames
Codec ID : avc1
Codec ID/Info : Advanced Video Coding
Duration : 1mn 30s
Bit rate mode : Variable
Bit rate : 470 Kbps
Width : 560 pixels
Height : 352 pixels
Display aspect ratio : 16:9
Frame rate mode : Constant
Frame rate : 25.000 fps
Standard : PAL
Resolution : 24 bits
Colorimetry : 4:2:0
Scan type : Progressive
Bits/(Pixel*Frame) : 0.095
Stream size : 5.05 MiB (87%)
Color primaries : BT.470-6 System B, BT.470-6 System G, BT.601-6

625, BT.1358 625, BT.1700 625 PAL, BT.1700 625 SECAM
Transfer characteristics : BT.470-6 System B, BT.470-6 System G
Matrix coefficients : BT.470-6 System B, BT.470-6 System G, BT.601-6 625, BT.1358 625, BT.1700 625 PAL, BT.1700 625 SECAM, IEC 61966-2-4 601

Audio
ID : 2
Format : AAC
Format/Info : Advanced Audio Codec
Format version : Version 4
Format profile : LC
Format settings, SBR : No
Format settings, PS : Yes
Codec ID : 40
Duration : 1mn 29s
Bit rate mode : Variable
Bit rate : 62.3 Kbps
Maximum bit rate : 64.0 Kbps
Channel(s) : 2 channels
Channel positions : Front: L R
Sampling rate : 32.0 KHz
Resolution : 16 bits
Stream size : 684 KiB (12%)
Language : org
neither the stream size, see the bitrate, nor the image size in the new video file have anything to do with the settings.
The second version of "MediaInfo" more accurately.

General
Complete name : c:\___A\RedoKarolaA\000 (02).mp4
Format : MPEG-4
Format profile : Base Media
Codec ID : isom
File size : 5.78 MiB
Duration : 1mn 30s
Overall bit rate : 539 Kbps
Writing application : VideoReDo (Lavf56.25.101)

Video
ID : 1
Format : AVC
Format/Info : Advanced Video Codec
Format profile : High@L2.1
Format settings, CABAC : Yes
Format settings, ReFrames : 4 frames
Codec ID : avc1
Codec ID/Info : Advanced Video Coding
Duration : 1mn 30s
Duration_LastFrame : -32ms
Bit rate mode : Variable
Bit rate : 470 Kbps
Maximum bit rate : 6 000 Kbps
Width : 720 pixels
Original width : 560 pixels
Height : 452 pixels
Original height : 352 pixels
Display aspect ratio : 16:9
Original display aspect ratio : 16:9
Frame rate mode : Constant
Frame rate : 25.000 fps
Standard : PAL
Color space : YUV
Chroma subsampling : 4:2:0
Bit depth : 8 bits
Scan type : Progressive
Bits/(Pixel*Frame) : 0.058
Stream size : 5.05 MiB (87%)
Color primaries : BT.470-6 System B, BT.470-6 System G, BT.601-6

625, BT.1358 625, BT.1700 625 PAL, BT.1700 625 SECAM
Transfer characteristics : BT.470-6 System B, BT.470-6 System G
Matrix coefficients : BT.470-6 System B, BT.470-6 System G, BT.601-6 625, BT.1358 625, BT.1700 625 PAL, BT.1700 625 SECAM, IEC 61966-2-4 601

Audio
ID : 2
Format : AAC
Format/Info : Advanced Audio Codec
Format version : Version 4
Format profile : LC
Codec ID : 40
Duration : 1mn 29s
Bit rate mode : Variable
Bit rate : 62.3 Kbps
Maximum bit rate : 64.0 Kbps
Channel(s) : 1 channel
Channel positions : Front: C
Sampling rate : 32.0 KHz
Compression mode : Lossy
Stream size : 684 KiB (12%)
Language : org
Once more.


1)
Width : 560 pixels
Height : 352 pixels

2)
Width : 720 pixels
Original width : 560 pixels
Height : 452 pixels
Original height : 352 pixels

If anybody do not understand, as me, image saved from video - one frame .

Pict02.jpg
Pict02.jpg

and screen captured when media player play video with selection of video dimensions.

Pict03.jpg
Pict03.jpg

I chose then dimensions ofered as default form Videoredo without any changes.

Pict04.jpg
Pict04.jpg

Well, unfortunately, the program will question its bright choice and produce a file with other dimensions, which results from the video captured frame saved as an image.

Pict05.jpg
Pict05.jpg

I noticed that the size of the image in the video file (496x400), completely different from the one I set and completed, the other proportions ( I remind 16/9 = 17777777777 (7) 496/400 = 1.24) the player displays again as about 705/400. I checked on different players VLC, GOM,

Pict06.jpg
Pict06.jpg

The program does not implement its own settings so I need to check which settings are used by others.
How many millions of helpless users who bought this program are doing well itself? In the network we find mainly 512x288 movies from this application.

Let us check ...

In the network we find mainly 512x288 movies from this application

Dimensions are accepted correctly without modification

Pict07.jpg
Pict07.jpg

and in terms of dimensions, conversions are carried out correctly:

picture of the frame drop

Pict08.jpg
Pict08.jpg

and even displays it correctly in the player

height

Pict10.jpgPict10.jpg
Pict10.jpg

width

{quote]
Oops! We ran into some problems.
You may only attach 10 files.
[/quote]
It mean 10 pictures. I have predicted this so You must far use links to see pictures. !!!!!!!!!!!!!!!!!!!!!!!!!!!!!!!!!!!!!!!!!!!! important
Pict11.jpg

Finally success!

No! Bitrate taken from the moon - see image with input settings and the output effect by "Mediainfo"

General
Complete name : c:\___A\RedoMediaOK\000.mp4
Format : MPEG-4
Format profile : Base Media
Codec ID : isom
File size : 4.93 MiB
Duration : 1mn 30s
Overall bit rate : 459 Kbps
Writing application : VideoReDo (Lavf56.25.101)

Video
ID : 1
Format : AVC
Format/Info : Advanced Video Codec
Format profile : High@L2.1
Format settings, CABAC : Yes
Format settings, ReFrames : 4 frames
Codec ID : avc1
Codec ID/Info : Advanced Video Coding
Duration : 1mn 30s
Duration_LastFrame : -32ms
Bit rate mode : Variable
Bit rate : 391 Kbps
Maximum bit rate : 6 000 Kbps
Width : 512 pixels
Height : 288 pixels
Display aspect ratio : 16:9
Frame rate mode : Constant
Frame rate : 25.000 fps
Standard : PAL
Color space : YUV
Chroma subsampling : 4:2:0
Bit depth : 8 bits
Scan type : Progressive
Bits/(Pixel*Frame) : 0.106
Stream size : 4.19 MiB (85%)
Color primaries : BT.470-6 System B, BT.470-6 System G, BT.601-6

625, BT.1358 625, BT.1700 625 PAL, BT.1700 625 SECAM
Transfer characteristics : BT.470-6 System B, BT.470-6 System G
Matrix coefficients : BT.470-6 System B, BT.470-6 System G, BT.601-6

625, BT.1358 625, BT.1700 625 PAL, BT.1700 625 SECAM, IEC 61966-2-4 601

Audio
ID : 2
Format : AAC
Format/Info : Advanced Audio Codec
Format version : Version 4
Format profile : LC
Codec ID : 40
Duration : 1mn 29s
Bit rate mode : Variable
Bit rate : 62.3 Kbps
Maximum bit rate : 64.0 Kbps
Channel(s) : 1 channel
Channel positions : Front: C
Sampling rate : 32.0 KHz
Compression mode : Lossy
Stream size : 684 KiB (14%)
Language : org
I see programs starting their own life, I wonder how far to Skynet (https://www.cyberdyne.jp/english/).


Let's play far.

Source OutOfHelp.mp4

Mediainfo
General
Complete name : C:\___A\[TS]2019-02-08.11.24.35-Stopklatka TV-12\OutOfHelp.mp4
Format : MPEG-4
Format profile : Base Media
Codec ID : isom
File size : 55.6 MiB
Duration : 3mn 28s
Overall bit rate : 2 242 Kbps
Encoded date : UTC 2019-03-21 15:42:58
Tagged date : UTC 2019-03-21 15:42:58

Video
ID : 2
Format : AVC
Format/Info : Advanced Video Codec
Format profile : Baseline@L4.1
Format settings, CABAC : No
Format settings, ReFrames : 2 frames
Codec ID : avc1
Codec ID/Info : Advanced Video Coding
Duration : 3mn 28s
Bit rate mode : Variable
Bit rate : 2 144 Kbps
Width : 1 280 pixels
Height : 720 pixels
Display aspect ratio : 16:9
Frame rate mode : Constant
Frame rate : 25.000 fps
Resolution : 24 bits
Colorimetry : 4:2:0
Scan type : Progressive
Bits/(Pixel*Frame) : 0.093
Stream size : 53.2 MiB (96%)
Encoded date : UTC 2019-03-21 15:42:58
Tagged date : UTC 2019-03-21 15:42:58

Audio
ID : 1
Format : AAC
Format/Info : Advanced Audio Codec
Format version : Version 4
Format profile : LC
Format settings, SBR : No
Codec ID : 40
Duration : 3mn 28s
Bit rate mode : Constant
Bit rate : 96.0 Kbps
Nominal bit rate : 113 Kbps
Channel(s) : 2 channels
Channel positions : L R
Sampling rate : 44.1 KHz
Resolution : 16 bits
Stream size : 2.39 MiB (4%)
Encoded date : UTC 2019-03-21 15:42:58
Tagged date : UTC 2019-03-21 15:42:58
VideoRedo
File: Name : C:\___A\[TS]2019-02-08.11.24.35-Stopklatka TV-12\OutOfHelp.mp4
Size : 0.058 GB
Duration : 00:03:28.01
Mux type : MP4
Video: Encoding : H.264
VideoStreamID : x202
Frame rate : 25.00 fps
Encoding size : 1280 x 720
Aspect ratio : 16:9
Header bit rate : 50.000 Mbps
VBV buffer : 1144 KBytes
Profile : Baseline/4.1
Progressive : Progressive
Chroma : 4:2:0
Entropy mode : CAVLC
Bit rate : 2.154 Mbps
Audio Stream: 1 (Primary) Codec : AAC
Format : RAW
Channels : 2.0
Language : und
PID : x201
PES Stream Id : xC0
Sampling rate : 44100
=>VideoRedo -> File -> Open video


Clipboard01.jpg
Picture


=> Save viddeo as H264 Elementary streams ( *.H264 ) -> half a minute ->


Clipboard02.jpg
Picture


files: OutOfHelp.h264 + OutOfHelp.m4a

=> VideoRedo -> Tools -> Elementary stream multiplixer -> open file OutOfHelp.h264 ->

Clipboard03.jpg
Picture

let's try different way

Cut/split OutOfHelp.mp4 by My MP4Box GUI without re-encoding on OutOfHelp_14_180.mp4

Demux by VideoRedo to OutOfHelp_14_180.h264 + OutOfHelp_14_180.m4a

Clipboard04.jpg
Picture

=> VideoRedo -> Tools -> Elementary stream multiplixer -> open file OutOfHelp_14_180.h264 ->

Clipboard05.jpg
Picture

again!

Next attempt.

Cut/split OutOfHelp.mp4 by Videoredo without re-encoding to OutOfHelpCut.mp4 - exactly save as H.264 MP4 (*.mp4).
This file must be the correct one, the videoredo itself has created it!

Clipboard07.jpg
Picture

Videoredo accepted the file as H.264 MP4

Clipboard06.jpg
Picture

Demux OutOfHelpCut.mp4

Clipboard09.jpg
Picture

to

Clipboard10.jpg
Picture

try to mux by videoredo elementary stream muxer

Clipboard11.jpg
Picture

What to f...?!

Again other way.


File OutOfHelp.mp4

"MediaInfo"
General
Complete name : C:\___A\[TS]2019-02-08.11.24.35-Stopklatka TV-12\AOHdemux\OutOfHelp.mp4
Format : MPEG-4
Format profile : Base Media
Codec ID : isom
File size : 55.6 MiB
Duration : 3mn 28s
Overall bit rate : 2 242 Kbps
Encoded date : UTC 2019-03-21 15:42:58
Tagged date : UTC 2019-03-21 15:42:58

Video
ID : 2
Format : AVC
Format/Info : Advanced Video Codec
Format profile : Baseline@L4.1
Format settings, CABAC : No
Format settings, ReFrames : 2 frames
Codec ID : avc1
Codec ID/Info : Advanced Video Coding
Duration : 3mn 28s
Bit rate mode : Variable
Bit rate : 2 144 Kbps
Width : 1 280 pixels
Height : 720 pixels
Display aspect ratio : 16:9
Frame rate mode : Constant
Frame rate : 25.000 fps
Resolution : 24 bits
Colorimetry : 4:2:0
Scan type : Progressive
Bits/(Pixel*Frame) : 0.093
Stream size : 53.2 MiB (96%)
Encoded date : UTC 2019-03-21 15:42:58
Tagged date : UTC 2019-03-21 15:42:58

Audio
ID : 1
Format : AAC
Format/Info : Advanced Audio Codec
Format version : Version 4
Format profile : LC
Format settings, SBR : No
Codec ID : 40
Duration : 3mn 28s
Bit rate mode : Constant
Bit rate : 96.0 Kbps
Nominal bit rate : 113 Kbps
Channel(s) : 2 channels
Channel positions : L R
Sampling rate : 44.1 KHz
Resolution : 16 bits
Stream size : 2.39 MiB (4%)
Encoded date : UTC 2019-03-21 15:42:58
Tagged date : UTC 2019-03-21 15:42:58

VideoRedo
File: Name : C:\___A\[TS]2019-02-08.11.24.35-Stopklatka TV-12\AOHdemux\OutOfHelp.mp4
Size : 0.058 GB
Duration : 00:03:28.01
Mux type : MP4
Video: Encoding : H.264
VideoStreamID : x202
Frame rate : 25.00 fps
Encoding size : 1280 x 720
Aspect ratio : 16:9
Header bit rate : 50.000 Mbps
VBV buffer : 1144 KBytes
Profile : Baseline/4.1
Progressive : Progressive
Chroma : 4:2:0
Entropy mode : CAVLC
Bit rate : 2.154 Mbps
Audio Stream: 1 (Primary) Codec : AAC
Format : RAW
Channels : 2.0
Language : und
PID : x201
PES Stream Id : xC0
Sampling rate : 44100
Demux mean do nothing only get out video and audio from container as they are.

Utility forom old good Media Player Clasic ( new ones are deprived of this tool ) do this with precysion - i am sure.

Clipboard01-04.jpg
Picture

Sound aac - left panel

VideoRedo - what it doing? why put anything into? eg. "Encoded date : UTC 2019-04-21 14:23:16" there was nothing to encode! Demux!!!

Sound m4a ? Why, where from ? - right panel.

Zupa.jpg
Picture

MediaInfo - left panel files ( MPC )

General
Complete name : C:\___A\[TS]2019-02-08.11.24.35-Stopklatka TV-12\AOHdemux\MPC\OutOfHelp.aac
Format : ADTS
Format/Info : Audio Data Transport Stream
File size : 2.45 MiB

Audio
Format : AAC
Format/Info : Advanced Audio Codec
Format version : Version 2
Format profile : LC
Muxing mode : ADTS
Bit rate mode : Variable
Channel(s) : 2 channels
Sampling rate : 44.1 KHz
Resolution : 16 bits
Stream size : 2.45 MiB (100%)

--

General
Complete name : C:\___A\[TS]2019-02-08.11.24.35-Stopklatka TV-12\AOHdemux\MPC\OutOfHelp.h264
Format : AVC
Format/Info : Advanced Video Codec
File size : 53.1 MiB

Video
Format : AVC
Format/Info : Advanced Video Codec
Format profile : Baseline@L4.1
Format settings, CABAC : No
Format settings, ReFrames : 2 frames
Width : 1 280 pixels
Height : 720 pixels
Display aspect ratio : 16:9
Frame rate mode : Variable
Resolution : 24 bits
Colorimetry : 4:2:0
Scan type : Progressive
MediaInfo - right panel files ( VideoRedo )

General
Complete name : C:\___A\[TS]2019-02-08.11.24.35-Stopklatka TV-12\AOHdemux\VideoRedo\OutOfHelp.m4a
Format : MPEG-4
Format profile : Base Media / Version 2
Codec ID : mp42
File size : 2.43 MiB
Duration : 3mn 28s
Overall bit rate : 97.9 Kbps
Encoded date : UTC 2019-04-21 14:23:16
Tagged date : UTC 2019-04-21 14:23:16

Audio
ID : 1
Format : AAC
Format/Info : Advanced Audio Codec
Format version : Version 4
Format profile : LC
Format settings, SBR : No
Codec ID : 40
Duration : 3mn 28s
Bit rate mode : Variable
Bit rate : 96.0 Kbps
Maximum bit rate : 142 Kbps
Channel(s) : 2 channels
Channel positions : L R
Sampling rate : 44.1 KHz
Resolution : 16 bits
Stream size : 2.39 MiB (99%)
Language : English
Encoded date : UTC 2019-04-21 14:23:33
Tagged date : UTC 2019-04-21 14:23:33

---

General
Complete name : C:\___A\[TS]2019-02-08.11.24.35-Stopklatka TV-12\AOHdemux\VideoRedo\OutOfHelp.h264
Format : AVC
Format/Info : Advanced Video Codec
File size : 53.2 MiB

Video
Format : AVC
Format/Info : Advanced Video Codec
Format profile : Baseline@L4.1
Format settings, CABAC : No
Format settings, ReFrames : 2 frames
Width : 1 280 pixels
Height : 720 pixels
Display aspect ratio : 16:9
Frame rate mode : Variable
Resolution : 24 bits
Colorimetry : 4:2:0
Scan type : Progressive
VideoRedo not muxing.

Dupa.jpg
Picture

MP4Box, MY MP4Box GUI, Yamb, Mp4 Muxer, they mix both. Unfortunately they have bug too - time correction audio/video do not work properlly - really at all.

Do your application does anything right?
Do any application work fully right?

Have mercy!
 

Attachments

Last edited:

Dan203

Senior Developer
Staff member
MPEG2 can only accept resolutions that are divisible by 16. Our current implementation uses that restriction for all profiles but we are discussing removing it for H.264 and HEVC in v6.

As for the size.... when you use an "Intelligent" profile the resolution you enter is a maximum. If the video you feed in is smaller than that setting it will not be resized. Bitrate is also a maximum and the video will only be recoded if the source bitrate exceeds this value. But calculating the bitrate of the source is a bit tricker. Getting the actual value would require a scan of the entire video, which would take too long, so the best we can do is guess based on the file size and duration of the video. (minus some overhead) It's not 100% accurate so if it's close it could fall on either side. Most of the other options are passive and will only kick in if the resolution or bitrate trigger a recode. The main goal of an "Intelligent" profile is to facilitate our smart cutting capability so the recode stuff is only a fall back. If you want to force a resize or bitrate change use a "Force recode" profile instead.
 

Kowa1

New member
Get it. What about demux/mux mp4. This otion would be very useful for syncing the sound if it was working.
Send You file OutOfHelpCut.mp4.zip ... unfortunately "The uploaded file is too large for the server to process. " - only 23MB Pity.
 
Last edited:

Dan203

Senior Developer
Staff member
Click your own name along the top row, that'll display a menu with an option to log out.
 
Top Bottom