File won't load in beta 757b (that old chestnut again)

tobyW

Member
Good news: 757b is now happy to open files that had previously caused me trouble (PMT not found) in 748a.
http://www.videoredo.net/msgBoard/showthread.php?36149-No-PMT-(Map-Tables)-found-in-this-transport-stream

Bad news: 757b is now unhappy, with a file that previously had no problem in 748a.
The editor loads the file OK, but the QSF tool complains "File is not a recognised video file".
From the editor I can re-save the input ts file (.mpg) as a new .ts file, then QSF will accept that.

MediaInfo...
General
ID : 1072 (0x430)
Complete name : D:\Temp\Revisit No Limit\No Limit (1935) - Topfield TS.mpg
Format : MPEG-TS
File size : 4.62 GiB
Duration : 2 h 33 min
Overall bit rate mode : Variable
Overall bit rate : 4 326 kb/s
FileExtension_Invalid : ts m2t m2s m4t m4s tmf ts tp trp ty

Video
ID : 512 (0x200)
Menu ID : 1078 (0x436)
Format : MPEG Video
Format version : Version 2
Format profile : Main@Main
Format settings, BVOP : Yes
Format settings, Matrix : Custom
Format settings, GOP : Variable
Format settings, picture structure : Frame
Codec ID : 2
Duration : 2 h 33 min
Bit rate mode : Variable
Bit rate : 3 918 kb/s
Maximum bit rate : 15.0 Mb/s
Width : 720 pixels
Height : 576 pixels
Display aspect ratio : 16:9
Frame rate : 25.000 FPS
Standard : PAL
Color space : YUV
Chroma subsampling : 4:2:0
Bit depth : 8 bits
Scan type : Interlaced
Scan order : Top Field First
Compression mode : Lossy
Bits/(Pixel*Frame) : 0.378
Stream size : 4.19 GiB (91%)

Audio
ID : 710 (0x2C6)
Menu ID : 1078 (0x436)
Format : MPEG Audio
Format version : Version 1
Format profile : Layer 2
Codec ID : 4
Duration : 2 h 33 min
Bit rate mode : Constant
Bit rate : 192 kb/s
Maximum bit rate : 201 kb/s
Channel(s) : 2 channels
Sampling rate : 48.0 kHz
Compression mode : Lossy
Delay relative to video : -368 ms
Stream size : 210 MiB (4%)
Language : English

Text
ID : 576 (0x240)-801
Menu ID : 1078 (0x436)
Format : Teletext Subtitle
Language : English

Menu
ID : 262 (0x106)
Menu ID : 1078 (0x436)
List : 512 (0x200) (MPEG Video) / 710 (0x2C6) (MPEG Audio, English) / 576 (0x240)-801 (Teletext Subtitle, en) / 2306 (0x902) () / 801 (0x321) () / 802 (0x322) () / 803 (0x323) ()
Language : / English / English
Service name : 9Gem
Service provider : Nine Network Australia
Service type : digital television
Maximum bit rate : 6320000
 

tobyW

Member
Hi Dan, I've tested 757d with the above file that broke 757b, and with files that broke 748a.

No problems, 757d worked OK with these files, thanks!
 
Top Bottom