Cannot open .m2ts file

KISSMAD

Member
I purchased VRDTVS H.264.

I've tried to open a .m2ts file but I keep getting the following error.

"No PIDs specified when trying to open a transport stream"

How to I open the file?
 

phd

Super Moderator
What version number of VideoReDo are you using? Click on the menu: Help>About

What is the source of your video files? What capture device do you use?

Is this occurring on just one file or all files?

Try checking "Ignore Transport Stream Map" in Tools>Options>Stream Parameters

You can also try setting these higher than the defaults
Tools>Options>Stream parameters, MBytes to scan at file open:
Tools>Shift+Options, set #11, Number of times a PMT has to be read when opening a file
 

KISSMAD

Member
What version number of VideoReDo are you using? Click on the menu: Help>About
4.21.2.662

What is the source of your video files? What capture device do you use?
All I know is that it was captured with a HD PVR with 5.1 audio.

Is this occurring on just one file or all files?
I've tried 4 different files from different sources and 3 of them have the same problem. The 4th loads but is has static noise for the audio.

Try checking "Ignore Transport Stream Map" in Tools>Options>Stream Parameters
It already is.

You can also try setting these higher than the defaults
Tools>Options>Stream parameters, MBytes to scan at file open:
Changed to 50

Tools>Shift+Options, set #11, Number of times a PMT has to be read when opening a file
Changed to 50
 

KISSMAD

Member
I unchecked the the "ignore transport stream map" and the 3 files that would not load before now load. The file that has the static audio now does not load.

Why is there static over the audio? You can just barely hear the audio over the static noise.
 

Dan203

Senior Developer
Staff member
Don't know. Open the file in MediaInfo, switch to text view and copy/paste the info here. Should tell us if there is something specific about the audio causing problems.
 

KISSMAD

Member
General
ID : 0 (0x0)
Complete name : E:\BD\BDMV\STREAM\00000.m2ts
Format : BDAV
Format/Info : Blu-ray Video
File size : 21.4 GiB
Duration : 1h 32mn
Overall bit rate mode : Variable
Overall bit rate : 33.2 Mbps
Maximum Overall bit rate : 48.0 Mbps

Video
ID : 4113 (0x1011)
Menu ID : 1 (0x1)
Format : MPEG Video
Format version : Version 2
Format profile : Main@High
Format settings, BVOP : Yes
Format settings, Matrix : Default
Format settings, GOP : M=3, N=15
Codec ID : 2
Duration : 1h 32mn
Bit rate mode : Variable
Bit rate : 30.4 Mbps
Maximum bit rate : 36.0 Mbps
Width : 1 920 pixels
Height : 1 080 pixels
Display aspect ratio : 16:9
Frame rate : 25.000 fps
Color space : YUV
Chroma subsampling : 4:2:0
Bit depth : 8 bits
Scan type : Interlaced
Scan order : Bottom Field First
Compression mode : Lossy
Bits/(Pixel*Frame) : 0.586
Time code of first frame : 00:00:00:00
Time code source : Group of pictures header
Stream size : 19.5 GiB (91%)

Audio
ID : 4352 (0x1100)
Menu ID : 1 (0x1)
Format : PCM
Format settings, Endianness : Big
Format settings, Sign : Signed
Muxing mode : Blu-ray
Codec ID : 128
Duration : 1h 32mn
Bit rate mode : Constant
Bit rate : 1 536 Kbps
Channel(s) : 2 channels
Channel positions : Front: L R
Sampling rate : 48.0 KHz
Bit depth : 16 bits
Delay relative to video : -80ms
Stream size : 1 013 MiB (5%)
 

Dan203

Senior Developer
Staff member
Ok we do not currently support PCM audio in TS files, so that's why the audio doesn't work. We're doing a major overhaul of the whole audio subsystem for the next major release which will support this, but in the current version you'll need to convert to a program stream or MP4 file for that audio to work.
 

KISSMAD

Member
That's a bit of a bugga.
I only upgraded a few days ago from VRD Plus. When is the new version going to be released?
 
Top Bottom