Audio resync frames removed when converting audio to ac3

Wizard24

Member
I was doing some editing from my elgato hd60 pcie card capturing from my dvr. The card captures in ts format with aac audio. After editing in videoredo v6 i love using the program to convert the audio to ac3 5.1 Each video test i did to test the card out all my captures have audio sync removed. I don't know why. I checked the framerate and its same as my old Hauppauge card i use to use. framerate is 59.940. here is a copy of mediainfo to see. all the information. Can someone look into this for me? The card from the there program only captures to ts no other format listed. Is this normal for videoredo 6 to remove frames on audio convert? I have a test video file if needed. I tested videoredo without converting the audio and its still removed sync frames.

General
ID : 1 (0x1)
Complete name : G:\Elgato Caps\Recording_2020-11-10_22-47-36_0003.ts
Format : MPEG-TS
File size : 5.23 GiB
Duration : 42 min 29 s
Overall bit rate mode : Variable
Overall bit rate : 17.6 Mb/s

Video
ID : 100 (0x64)
Menu ID : 2 (0x2)
Format : AVC
Format/Info : Advanced Video Codec
Format profile : High@L4.1
Format settings : CABAC / 1 Ref Frames
Format settings, CABAC : Yes
Format settings, Reference frames : 1 frame
Format settings, GOP : M=1, N=15
Codec ID : 27
Duration : 42 min 29 s
Bit rate mode : Variable
Bit rate : 16.4 Mb/s
Width : 1 920 pixels
Height : 1 080 pixels
Display aspect ratio : 16:9
Frame rate : 59.940 (60000/1001) FPS
Color space : YUV
Chroma subsampling : 4:2:0
Bit depth : 8 bits
Scan type : Progressive
Bits/(Pixel*Frame) : 0.132
Stream size : 4.86 GiB (93%)
Color range : Full
Color primaries : BT.709
Transfer characteristics : BT.709
Matrix coefficients : BT.709

Audio
ID : 101 (0x65)
Menu ID : 2 (0x2)
Format : AC-3
Format/Info : Audio Coding 3
Commercial name : Dolby Digital
Codec ID : 129
Duration : 42 min 29 s
Bit rate mode : Constant
Bit rate : 384 kb/s
Channel(s) : 6 channels
Channel layout : L R C LFE Ls Rs
Sampling rate : 48.0 kHz
Frame rate : 31.250 FPS (1536 SPF)
Compression mode : Lossy
Stream size : 117 MiB (2%)
Language : English
Service kind : Complete Main

Forgot to add that media info is after i used video redo to convert the audio.
 
Last edited:

Danr

Administrator
Staff member
If you simply QSF the source video are frames removed? If they are send us the log file.
 

Wizard24

Member
The frames are being removed after edit a video and save. If i don't reconvert the audio the frames are removed too. Ill try qsf but it will probably show the frames removed same as if i did edits. In a few ill do a edit of video and ill poste the log here or email it to support. If you need a small sample of video. its 10mins long and only 1.52gbs in size.
 

Wizard24

Member
in qsf it reported
Recording_2020-11-11_19-16-12_0002
Video length:01:05:46
Video size:8590MB
Output scenes:1
Video output frames:236610
Audio output frames:1
Processing time (secs):256
Processed frames/sec:924.26
Actual Video Bitrate:16.96 Mbps
PTS underflows:1
Audio resync frames removed:26
 

Wizard24

Member
I sent the log file to support i used my my email address since i closed videoredo but i had the log saved.
 
Last edited:
Top Bottom